Encontre o que procura - Aqui!

[BAIXAR]Curso Recarregar Toner de Impressoras Creative Copias - QMF [DOWNLOAD GRÁTIS]

www.quimicamusicaefirula.com

Baixe Milhares de Filmes Clicando Aqui - QMF!


Curso Recarregar Toner em Impressoras


Descrição:

Aprenda você mesmo a Recarregar seus cartuchos de Impressora a Laser

Neste curso você aprenderá como reciclar cartuchos de toner para impressoras, laser e copiadoras, e o melhor ainda sem a utilização de maquinários de forma rápida e sem grandes investimentos.


VÍDEO AULA ALTAMENTE EXPLICATIVA EM DVD


Tabela de compatibilidade e quantidade de Toner de impressoras Lasers;

Aprenda você mesmo a recarregar seu Toner; Vários modelos:

Vdeo Aula Recarga Toner HP C7115A

Vdeo Aula Recarga Toner Samsung CLP 310, CLP 315, CLX 3170, CLX 3175

Vdeo Aula Troca Cilindro Brother DR520

Vdeo Aula Troca Cilindro Brother DR620

Video Aula Recarga do Toner HP CE505A, CE505X, P2035, P2035N, P2055, P2055N, P2055DN

Video Aula Recarga do Toner HP Q7551A, 51A, Q7551X, 51X, HP 3005, 3005N, 3005DN, M3027

Video Aula Recarga HP 1600, 2600, 2600n, 2600dtn, CM1015, CM1017

Video Aula Recarga Toner Brother TN550, TN 550, 5240, 5250, 5280, 8060, 8065, 8460, 8660, 8860, 8870

Video Aula Recarga Toner Brother TN580, TN 580, 5240, 5250, 5280, 8060, 8065, 8460, 8660, 8860, 8870

Video Aula Recarga Toner Brother TN620, TN 620, HL 5350, MFC 8480, DCP 8070, DCP 8080, DCP 8085

Video Aula Recarga Toner Brother TN650 TN 650 HL5340 HL5350 MFC8480 DCP8070 DCP8080 DCP8085 DCP8090

Video Aula Recarga Toner HP 1160, 1320, 3390, Q5949A, Q5959X, 49A, 49X

Video Aula Recarga Toner HP CE255A, CE255X, 55A, 55X P3015, P3015N, P3015DN, P3015X

Video aula recarga toner HP CE285A, P1102, P1102W, M1130, M1132

Video Aula Recarga Toner HP CP1215, CP1515, CM1312, Toner CB540A, CB541A, CB542A, CB543A

Video Aula Recarga Toner HP P2014, P2015, M2727, Q7553A, Q7553X, 53A, 53X

Video Aula Recarga Toner HP Q2612A 1010, 1012, 1015, 1018, 1020, 1022, 3015, 3020, 3050, 1319

ideo Aula Recarga Toner Samsung ML 2850, ML 2850D, ML 2851, ML 2851ND

Video Aula Recarga Toner Sharp AL1000, 1530, 1641, 1642, 2040, Xerox XD100, Olivetti 9912

Video Aula Troca Cilindro Sharp AL1000, 1530, 1641, 1642, 2040, Xerox XD100, Olivetti 9912

Video Aula Troca Pelcula do Fusor HP 1120, M1120, M1120MFP

Video Recarga do Toner 128A, CE320A, CE321A, CE322A, CE323A, HP CM1415, CM1415NW

Video Recarga Toner HP CB436A, 36A, P1505, M1120, M1522, M1522N, M1522NF

Video Recarga Toner Samsung ML1610 ou ML 1610, ML 1610D2

Video Recarga Toner Samsung ML2010, ML 2010, ML 2010D3

Video Recarga Toner Samsung ML 1665, ML 1660, SCX 3200, SCX 3217, D104S

Video Recarga Toner Samsung SCX4200, D4200A

Video Recarga Toner Samsung SCX 4521, SCX4521F, SCX 4521D3

Video Recarga Toner Samsung SCX 4600, SCX 4623, D105S, D105L

Video Recarga Toner Samsung SCX 4725, SCX 4725N, SCX 4725FN, SCX4725A

Video Recarga Toner Xerox PE220, 013R00621

Video Recarga Toner Xerox Phaser 3117, 106R01159

Video Recarga Toner Xerox Phaser 3122, 106R01159

Video Recarga Toner Xerox Phaser 3125, 106R01159

Video Recarga Toner Xerox Phaser 3200, 3200MFP, 113R00730

Problemas no CB435A Impresso Clara ou Fraca na recarga do toner HP CB435A

Autor: Klayton - Creative
Idioma: Português
Tamanho: 5.85 GB
Qualidade: DVDRip


Format : Windows Media
File size : 224 MiB
Duration : 9mn 24s
Overall bit rate : 3 323 Kbps
Maximum Overall bit rate : 264 Kbps
Encoded date : UTC 1970-01-01 00:00:00.000
WM/EncodingSettings : Lavf52.64.0

Video
ID : 1
Format : WMV1
Codec ID : WMV1
Codec ID/Info : Windows Media Video 7
Description of the codec : wmv1
Bit rate : 3 118 Kbps
Width : 640 pixels
Height : 480 pixels
Display aspect ratio : 4:3
Frame rate : 59.749 fps
Bit depth : 8 bits
Bits/(Pixel*Frame) : 0.170
Stream size : 210 MiB (94%)

Audio
ID : 2
Format : WMA
Format version : Version 2
Codec ID : 161
Codec ID/Info : Windows Media Audio
Description of the codec : Windows Media Audio V8
Duration : 9mn 24s
Bit rate : 64.0 Kbps
Channel(s) : 2 channels
Sampling rate : 44.1 KHz
Bit depth : 16 bits
Stream size : 4.30 MiB (2%)

Nome do livro:
Curso Recarregar Toner de Impressoras Creative Copias
Nome do Autor:
Klayton - Creative Copias
Gênero:
Curso
Ano de Lançamento:
2009
Editora:
Creative Copias
Nº de páginas:
Tamanho:
5.8 GB
Formato:
Rar
Idioma:
Português
quimica, Musica, Firula, Baixar, dowload, gratis, musica mp3, quimica organica, fisico-quimica, bioquimica

http://img842.imageshack.us/img842/6747/maozinha.gif
Ajude-nos a Permanecer no Ar, Dizendo Apenas: Obrigado(a)!

Nenhum comentário:

Postar um comentário

Poste aqui sua dúvida,sugestão ou reclamação

Observação: somente um membro deste blog pode postar um comentário.

Partice dessa Família Também!